BBC: Büyük Kedilerin Günlügü/Big Cat Diary | 28 Bölüm | DvBRip |

BBC: Büyük Kedilerin Günlügü/Big Cat Diary | Belgesel | 28 Bölüm | DvBRip | Türkçe Dublaj

BBC: Büyük Kedilerin Günlügü/Big Cat Diary | 28 Bölüm  | DvBRip  | Türkçe Dublaj  |Toplam :9.4 Gb


BBC: Büyük Kedilerin Günlügü/Big Cat Diary | Belgesel | 28 Bölüm | DvBRip | Türkçe Dublaj

 

1996 da başlayan seri bir bbc/animal planet ortak yapımıdır.

Aslanlar Leoparlar Kaplanlar ve Çitaların dünyadına onların gözünden bakarak

Afrikanın uçsuz bucaksız düzlüklerinde geçen uzun soluklu bir hikaye

TRT den  riplenmiş olarak karşınızda

 

(ekşi sözlükten Alıntı):
1996'dan bu yana büyük kedilerin günlüğü bir pembe dizi tadında aslanların, leoparların ve çitaların doğal ortamda başlarından geçenleri ve yaşadıklarını anlatıyor. simon king, kenya– (bkz: Masai Mara) 'ya yeni bir ziyaret yapıp izleyicilerin yıllar boyunca keyifle ve ilgiyle izledikleri bu büyük kedilerle yeniden buluşyor. hem geçmişteki unutulmaz anlar bir daha tazeleniyor hem de son gelişmeler izleniyor. 

büyük kedilerin günlüğü :Leopar
shadow adlı leopar annesiyle half-tail (yarım kuyruk) ile birlikte ilk defa kameraya alındığında henüz 6 aylıktı. annesi avlanırken, shadow genellikle yaramazlık yapar, ya büyük sağanakların altında kalır ya da ağaçlarda mahsur kalırdı. annesi öldükten sonra, yavrusu yağmacı sırtlanlar tarafından yok edilen shadow'u bundan sonraki yavrusu ile ilgili gelişmeler merakla bekleniyor.. 

büyük kedilerin günlüğü :Aslan
sürünün lideri olan scar, yardımcısını kaybedince, marsh sürüsü oldukça savunmasız düşmüştü. nehrin öte yanından ve civardaki düzlüklerden yöneltilen tehditlere rağmen yine de uzun süre tek başına sürüyü idare etti. ancak, topi alanından iki genç aslan scar'ın liderliğine son verdiler ve dişilerin hakimiyetini ele aldılar. scar'ın yavruları kendilerini savunabilecek yaşa geldikleri için mutlak bir ölümden kurtuldular ve dişiler de şu anda artık birer anne. 

büyük kedilerin günlüğü :Çita
deneyimsiz kidogo ve onun hoşgörülü amber'i ile minik yavrusu kike (ki çok yakında bir yıldız olacağı kesin!) vahşi dünyada yaşamlarını sürdürmeye çalışıyorlardı. aslanlarla girdiği ölümcül meydan okuyuşlara rağmen honey ve üç yavrusu çok yakın zamanlarda oldukça iyi durumda gözlenmişti.

BBC: Büyük Kedilerin Günlügü/Big Cat Diary | Belgesel | 28 Bölüm | DvBRip | Türkçe Dublaj


alt
alt
alt

      Format : AVI
      Format/Info : Audio Video Interleave
      File size : 350 MiB
      Duration : 28mn 53s
      Overall bit rate : 1 692 Kbps
      Writing application : VirtualDubMod 1.5.10.2 (build 2540/release)
      Writing library : VirtualDubMod build 2540/release
   Video
      Format : MPEG-4 Visual
      Format profile : Streaming Video@L1
      Format settings, BVOP : Yes
      Format settings, QPel : No
      Format settings, GMC : No warppoints
      Format settings, Matrix : Default
      Muxing mode : Packed bitstream
      Codec ID : XVID
      Codec ID/Hint : XviD
      Duration : 28mn 53s
      Bit rate : 1 575 Kbps
      Width : 524 pixels
      Height : 382 pixels
      Display aspect ratio : 1.372
      Frame rate : 25.000 fps
      Resolution : 24 bits
      Colorimetry : 4:2:0
      Scan type : Progressive
      Bits/(Pixel*Frame) : 0.315
      Stream size : 325 MiB (93%)
      Writing library : XviD 1.1.2 (UTC 2006-11-01)
   Audio
      Format : MPEG Audio
      Format version : Version 1
      Format profile : Layer 3
      Codec ID : 55
      Codec ID/Hint : MP3
      Duration : 28mn 53s
      Bit rate mode : Variable
      Bit rate : 104 Kbps
      Nominal bit rate : 128 Kbps
      Channel(s) : 2 channels
      Sampling rate : 48.0 KHz
      Resolution : 16 bits
      Stream size : 21.6 MiB (6%)
      Alignment : Aligned on interleaves
      Interleave, duration : 24 ms (0.60 video frame)
      Interleave, preload duration : 467 ms
      Writing library : LAME3.90.
      Encoding settings : ABR

BBC: Büyük Kedilerin Günlügü/Big Cat Diary | Belgesel | 28 Bölüm | DvBRip | Türkçe Dublaj

============================================

Big Cats Diary (02 Aralık 2007 - TRT 2 DVBRip)


============================================

Big Cats Diary (09 Aralık 2007 - TRT 2 DVBRip)


============================================

Big Cats Diary (16 Aralık 2007 - TRT 2 DVBRip)

http://rapidshare.com/files/266527090/B.K.Gunlugu.161207.part1.rar
http://rapidshare.com/files/266527430/B.K.Gunlugu.161207.part2.rar

============================================

Yorum Yaz
Arkadaşların Burada !
Arkadaşların Burada !